&title=ケロ⑨destiny [DX]
&artist=Silver Forest
&first=0.25
&des_4=アマリリス
&des_5=Redarrow
&lv_2=3
&lv_3=6
&lv_4=10
&lv_5=13
&inote_2=(172.0)
{2}1,1,
{2}1,1,
{2}8,8,
{1}1/8,
{2}1,1,
{2}2,2,
{2}3,3,
{1}4/5,
{2}5,5,
{2}6,6,
{2}7,7,
{2}1x/8x,1x/8x,
{2}8,8,
{2}7,7,
{2}6,6,
{2}4/5,4/5,
{2}4,4,
{2}3,3,
{2}2,2,
{1}1b/8b,
{1}1-4[4:3],,
{1}5-8[4:3],,
{1}1-4[4:3],,
{2}8,8,
{1}1/8,
{4}8,8,8,,
{2}7,7,
{4}6,6,6,,
{2}4/5,4/5,
{4}4,4,4,,
{2}3,3,
{4}2,2,2,,
{1}1/8,
{4}1,1,1,,
{2}2,2,
{4}3,3,3,,
{2}4/5,4/5,
{4}5,5,5,,
{2}6,6,
{4}7,7,7,,
{1}1x/8x,
{1}B1/B8,
{1}B2/B7,
{1}B3/B6,
{1}B4/B5,
{1}C1,,,
{1}1h[1:1]/2h[1:1],,
{1}7h[1:1]/8h[1:1],,
{4}1b,1,1,,
{4}2,2,2,,
{4}3,3,3,,
{2}4/5,4/5,
{4}5,5,5,,
{4}6,6,6,,
{4}7,7,7,,
{1}1/8,
{4}8,8,8,,
{4}7,7,7,,
{4}6,6,6,,
{4}5,5,4/5,,
{4}4,4,4,,
{4}3,3,3,,
{4}2,2,2,,
{4}1,1,1,,
{1}1b/8b,
{1}1h[2:1],
{2}2,2,
{1}3h[2:1],
{2}4,4,
{1}5h[2:1],
{2}6,6,
{1}7h[2:1],
{2}8,8,
{1}1-4[4:3]/8-5[4:3],,
E
&inote_3=(172.0)
{2}3h[2:1],4,
{2}5h[2:1],4,
{2}6h[2:1],5,
{2}4h[2:1],5,
{4}3,3,3,,
{4}4,4,4,,
{4}5,5,5,,
{4}6,6,6,,
{1}7-4[2:1],
{4}3,3,3,,
{1}2-5[2:1],
{4}6,6,6,,
{1}7-4[2:1],
{4}3,3,3,,
{4}2,2,2,,
{4}1x/2x,1x/2x,1b/2b,,
{1}3-8[2:1],
{4}7,7,7,,
{1}6-1[2:1],
{4}2,2,2,,
{1}3-8[2:1],
{4}7,7,7,,
{4}6,6,6,,
{1}4b/5b,
{2}3h[2:1],4h[2:1],
{2}5h[2:1],6h[2:1],
{2}7h[2:1],6h[2:1],
{2}5h[2:1],6,
{2}6h[2:1],5h[2:1],
{2}4h[2:1],3h[2:1],
{2}2h[2:1],3h[2:1],
{2}4h[2:1],3bx,
{4}2,2,1x/2x,,
{4}3,3,3x/4x,,
{4}5,5,6,6,
{1}5h[2:1]/6h[2:1],
{4}7,7,7x/8x,,
{4}6,6,5x/6x,,
{4}4,4,3,3,
{1}3h[2:1]/4h[2:1],
{4}2,2,1x/2x,,
{4}3,3,3x/4x,,
{4}5,5,6,6,
{1}5h[2:1]/6h[2:1],
{4}7,7,7x/8x,,
{4}6,6,5x/6x,,
{4}4,4,3,3,
{1}3h[2:1]/4h[2:1],
{4}B2,B3,B4,,
{4}B7,B6,B5,,
{4}B1,B2,B3/B4,,
{4}B8,B7,B5/B6,,
{1}C1f,,,
{1}2-6[2:1],
{1}7-3[2:1],
{1}2-6[2:1],
{4}7,7,1b/8b,,
{4}2,2,1x/2x,1x/2x,
{4}3,3,3x/4x,,
{4}5,5,6,6,
{1}7h[2:1]/8h[2:1],
{4}7,7,7x/8x,7x/8x,
{4}6,6,5x/6x,,
{4}4,4,3,3,
{1}1h[2:1]/2h[2:1],
{4}2,2,1x/2x,1x/2x,
{4}3,3,3x/4x,,
{4}5,5,6,6,
{1}7h[2:1]/8h[2:1],
{4}7,7,7x/8x,7x/8x,
{4}6,6,5x/6x,,
{4}4,4,3,3,
{1}1h[2:1]/2h[2:1],
{1}C1f,
{1}2-5[2:1],
{1}7-4[2:1],
{4}3,3,4,4,
{4}5/6,5/6,5/6,,
{1}7-4[2:1],
{1}2-5[2:1],
{4}6,6,5,5,
{4}3/4,3/4,3/4,,
{1}Chf[1:2],,,
E
&inote_4=(172.0)
{2}4h[2:1],2h[2:1],
{2}8h[2:1],6h[2:1],
{4}4h[4:1],2h[4:1],8h[4:1],6h[4:1],
{4}4h[4:1],2h[4:1],8,,
{4}1/2,3,4,5/6,
{4}1/2,3,4,5/6,
{4}7/8,1,2,1/3,
{4}7/8,1,2,3/1qq5[2:1],{1},
{4}5,4,3,4/5,
{4}6h[4:1],5,3h[4:1],4,
{4}4/2^5[4:1],,,6,
{4}6h[4:1],5,3h[4:1],4,
{4}6,5,4,3/5,
{4}6h[4:1],5,3h[4:1],4,
{4}2/5,1/6,7b/8b,,
{4}2h[4:1],1,7h[4:1],8,
{4}1,2,3/4,4-1[4:1]/6-1[4:1],
{4},,8,7,
{4}8/6^1[4:1],,,2,
{4}2h[4:1],1,7h[4:1],8,
{4}2,1,7/8,1/8,
{4}1/2,7/8,1/2,7/8,
{8}1hx[8:3]/8hx[8:3],,,,,2x/7x,2bx/7bx,,
{1}1qq5[2:1],
{1}8qq4[2:1],
{1}1pp1[2:1]/8qq8[2:1],
{1}3v2[8:3]/7v6[8:3],
{2}7-5[4:1],2-4[4:1],
{2}5-7[4:1],4-2[4:1],
{2}7^5[4:1],2,
{4}5bx/6bx,3bx/4bx,1bx/2bx,3bx/8bx,
{16}7h[16:3],,,5h[16:3],,,6,,6,,,,1x/2x,,,,
{16}3h[16:3],,,5h[16:3],,,4,,4,,,,7x/8x,,,,
{16}1h[16:3],,,2h[16:3],,,3,,3h[16:3],,,4h[16:3],,,5,,
{8}5-2[4:1],,,,,8b,8b,,
{16}2h[16:3],,,4h[16:3],,,3,,3,,,,7x/8x,,,,
{16}6h[16:3],,,4h[16:3],,,5,,5,,,,1x/2x,,,,
{16}8h[16:3],,,7h[16:3],,,6,,6h[16:3],,,5h[16:3],,,4,,
{8}4,,2,2,,1b/8b,1b/8b,,
{16}2h[16:3],,,4h[16:3],,,3,,3,,,,7x/8x,,,,
{16}6h[16:3],,,4h[16:3],,,5,,5,,,,1x/2x,,,,
{16}8h[16:3],,,7h[16:3],,,6,,6h[16:3],,,5h[16:3],,,4,,
{8}4-7[4:1],,,,,1b,1b,,
{16}7h[16:3],,,5h[16:3],,,6,,6,,,,1x/2x,,,,
{16}3h[16:3],,,5h[16:3],,,4,,4,,,,7x/8x,,,,
{16}1h[16:3],,,2h[16:3],,,3,,3h[16:3],,,4h[16:3],,,5,,
{8}5,,3/6,3/6,,1b/8b,1b/8b,,
{4}A2,A3,A4,A5,
{4}A6,A7,A2/A8,,
{4}A1,A8,A7,A6,
{4}A5,A4,
{2}A3/Ch[2:1],{1},,,
{4}5/1h[4:1],2h[4:1],3h[4:1],4h[4:1],
{4}5h[4:1],6h[4:1],7h[4:1],8,
{4}4/8h[4:1],6h[4:1],4h[4:1],2,
{4}3b/4b,5b/6b,7b/8b,1b/6b,
{16}2h[16:3],,,4h[16:3],,,5,,5,,,,7x/8x,,,,
{16}2h[16:3],,,4h[16:3],,,5,,5,,,,7x/8x,,,,
{16}2h[16:3],,,3h[16:3],,,4,,4h[16:3],,,5h[16:3],,,6,,
{8}6-2[4:1],,,,,8b,8b,,
{16}7h[16:3],,,5h[16:3],,,4,,4,,,,1x/2x,,,,
{16}7h[16:3],,,5h[16:3],,,4,,4,,,,1x/2x,,,,
{16}7h[16:3],,,6h[16:3],,,5,,5h[16:3],,,4h[16:3],,,3,,
{8}3,,2,2,,1b/8b,1b/8b,,
{16}7h[16:3],,,5h[16:3],,,4,,4,,,,1x/2x,,,,
{16}7h[16:3],,,5h[16:3],,,4,,4,,,,1x/2x,,,,
{16}7h[16:3],,,6h[16:3],,,5,,5h[16:3],,,4h[16:3],,,3,,
{8}3-7[4:1],,,,,1b,1b,,
{16}2h[16:3],,,4h[16:3],,,5,,5,,,,7x/8x,,,,
{16}2h[16:3],,,4h[16:3],,,5,,5,,,,7x/8x,,,,
{16}2h[16:3],,,3h[16:3],,,4,,4h[16:3],,,5h[16:3],,,6,,
{8}6,,7,7,,1b/8b,1b/8b,,
{1}4w8[8:3],
{8}2,2,1,1,,3x,3x,2x/4x,
{8},3,,5/6,,7x/8x,,1x/2x,
{8},2,1,1,,3,4,4,
{8},6,5,5,,1x/8x,1x/8x,,
{8}7,7,8,8,,6x,6x,5x/7x,
{8},6,,3/4,,1x/2x,,7x/8x,
{8},7,8,8,,6,5,5,
{8},3,4,4,,1x/8x,1x/8x,,
{1}7/2<2[4:15],,,,,
E
&inote_5=(172)
{4}1h[4:1]/2h[4:1],,4h[4:1]/7h[4:1],,1h[4:1]/6h[4:1],,3h[4:1]/4h[4:1],,
{8}5/6h[4:1],5,4,4,3h[4:1]/5,5,4,4,5/6h[4:1],5,4,4,3-1[8:1]/5-1[8:1],,,,
{16}2,1,2,,8,1,8,,3,1,3,,7,1,7,,1,8,1,,7,8,7,,2,8,2,,6,8,6,,
1,8,1,,6,8,6,,2,1,2,,7,1,7,,3,1,3,,8,1,8,,2,8,2,,7,8,7,,
{4}2x>6[4:1],6<2[4:1],2qq5[4:1],,{16}7xh[16:3],,,6xh[16:3],,,5x,,4x/7x,,,,3,,,,
2q6[4:1],,,,6>3[4:1],,,,8,,,6,,,5,,4xqq7[2:1]/3xh[12:5],,,,,,,,A2,D2,A1,D1,A8,,,,
6-3[4:1],,,,3<6[4:1],,,,1,,,3,,,4,,5/6h[8:3],,,4,,,5,,3h[8:3]/4,,,5,,,4,,
{4}5-1[16:1],{512}C,B1,,,{128},,,{32},,,{8},5w1[8:1],,{512}C,B1/B2/B8,,,{128},,,{32},,,{8},
4/6,5,3/7,5,B1/B2/B3/B4/B5/B6/B7/B8/E6/E8,,,,
{4}3<6[4:1]/6,7,4/7<4[4:1],3,{16}3x-6[16:3],,,6x-1[16:3],,,1x-3[8:1],,1xh[4:1],,,,{4},
4-1[8:1],6-1[8:1],5-1[8:1],,4xpp1[2:1]/5xh[12:5],,{16}A6,D7,A7,D8,A8,,,,
1-5[8:1]/2-5[8:1],,,,,,,,4/6,,4/6,,,,3,,3h[16:3],,,4h[16:3],,,5,,6h[16:3],,,5h[16:3],,,4,,
{2}3xpp5[8:1]/4xpp5[8:1],3xp5[8:1]/4xpp5[8:1],3x>5[8:1]/4xp5[8:1],{8},3b/7b,3b/7b,,
{16}6h[16:3],,,5,,,4/6,,4h[16:3],,,5,,,3/5,,6h[16:3],,,5,,,4/7,,3h[16:3],,,4,,,2/5,,
7h[16:3],,,8,,,1/6,,2h[16:3],,,1,,,3/8,,4xh[16:3]/6xh[4:3],,,,,,5x,,7x,8x,1x,2x,3x,,,,
7h[16:3],,,8,,,1/7,,2h[16:3],,,1,,,1/3,,6h[16:3],,,5,,,4/7,,3h[16:3],,,4,,,2/5,,
6h[16:3],,,5,,,4/6,,4h[16:3],,,5,,,3/6,,
7x,6x,5x,4x/8x,1x,2x,3x/8x,7x,6x,1x/5x,2x,3x,4x/5bx,,,,
3/7,,,4-6v8[12:5]/6,,,8,,8,,7bx,,7bx,,7bx,,
1/6,,,2/5-3qq1[12:5],,,1,,1,,2bx,,,,2bx,,
3>8[8:1],,,4,,,5,,6<1[8:1],,,4,,,3,,2-4[8:1],,,,1-5[8:1],,,,8-6[8:1],,,,,,,,
2x/6x,,,3/5-3v1[12:5],,,1,,1,,2bx,,2bx,,2bx,,
3/7,,,4-6pp8[12:5]/6,,,8,,8,,7bx,,,,7bx,,
6h[16:3],,,7h[16:3],,,8,,2h[16:3],,,1h[16:3],,,8,,
3x<6[4:1]/7bxqq6[12:5],,,,3x/7bx,,,,,,E7,,D7,,,,
3/7,,,4/6p2v8[12:5],,,3,,3,,1bx,,1bx,,1bx,,
2/6,,,3q7pp1[12:5]/5,,,6,,6,,8bx,,,,8bx,,
6v1[8:1],,,4,,,3,,2v5[8:1],,,6,,,7,,
8<3[4:1]*p3[4:1],,,,,,,,,,E3,,A2,,,,
2/6,,,3q7v1[12:5]/5,,,6,,6,,8bx,,8bx,,8bx,,
3/7,,,4/6p2qq8[12:5],,,3,,3,,1bx,,,,1bx,,
2h[16:3],,,1h[16:3],,,8,,7h[16:3],,,8h[16:3],,,1,,
3x<6[4:1]/7bxqq6[4:1],,,,3x/7bx,,,,,,B6,,E7,,,,
{4}4h[1:2],6,6,5,5,3,3,,5h[1:2],4,4,6,6,7,7,
8-4b[16:1],8b,,,,,,,,,,,C,
{8}8,8,7,7,6,6,5,5,4,4,3,3,2,2,1,1,7/8,7/8,5/6,5/6,3/4,3/4,1/2,1/2,
{16}8x,7x,6x,5x/1x,2x,3x,4x/1x,8x,7x,6x/2x,3x,4x,5x/6bx,,,,
2/5,,,3-6v8[12:5]/6,,,1,,1,,7bx,,7bx,,7bx,,
3/6,,,2/5-3qq1[12:5],,,8,,8,,2bx,,,,2bx,,
3v8[8:1],,,4,,,5,,6v1[8:1],,,4,,,3,,2-4[8:1],,,,1-5[8:1],,,,8-6[8:1],,,,,,,,
4/7,,,3/6-3v1[12:5],,,8,,8,,2bx,,2bx,,2bx,,
3/5,,,4-6pp8[12:5]/6,,,1,,1,,7bx,,,,7bx,,
6h[16:3],,,7h[16:3],,,8,,2h[16:3],,,1h[16:3],,,8,,
2xpp3[4:1]/7bxqq6[4:1],,,,2x/7bx,,,,,,B3/B6,,B3/B6,,,,
2/7,,,3/5>2v8[12:5],,,8,,8,,1bx,,1bx,,1bx,,
2/7,,,3<7pp1[12:5]/6,,,1,,1,,8bx,,,,8bx,,
6v1[8:1],,,4,,,2,,3v8[8:1],,,5,,,7,,
1pp3[4:1]*q6[4:1],,,,,,,,,,D3/D7,,D3/D7,,,,
2/7,,,4<7v1[12:5]/6,,,1,,1,,8bx,,8bx,,8bx,,
2/7,,,3/5>2qq8[12:5],,,8,,8,,1bx,,,,1bx,,
2h[16:3],,,1h[16:3],,,8,,7h[16:3],,,8h[16:3],,,1,,
2xpp3[4:1]/7bxqq6[4:1],,,,2x/7bx,,,,,,B3/B6,,B3/B6,,,,
{8}1qq4[2:1]*qq3<4[2:1],,,,,,,,
2/5,6,3,7,4h[4:1],1bx,2bx,1bx,3/8,4,7,5,6h[4:1],8bx,,8bx,
2/6,5,3,4,2/5,1,6,8,7bx-4[8:1],1x-5[8:1],7bx,1x,,E4/E6,E4/E6,,
4/7,3,6,2,5h[4:1],8bx,7bx,8bx,1/6,5,2,4,3h[4:1],1bx,,1bx,
3/7,4,6,5,4/7,8,3,1,2bx-5[8:1],8x-4[8:1],2bx,8x,,E4/E6,E4/E6,,
3-6>3[2:3],,,,,,,,,,,,,,E1,
